WinFuture-Forum.de: Staxrip 1.3.2.0 dsmux --ui-language en - WinFuture-Forum.de

Zum Inhalt wechseln

Nachrichten zum Thema: Multimedia-Software
Seite 1 von 1

Staxrip 1.3.2.0 dsmux --ui-language en wie krieg ich das de

#1 Mitglied ist offline   Candlebox 

  • Gruppe: aktive Mitglieder
  • Beiträge: 1.880
  • Beigetreten: 08. Juli 04
  • Reputation: 161

geschrieben 12. März 2016 - 14:28

Hallo,

Habe mir heute mal die Staxrip 1.3.2.0 (64Bit) angesehn. Bin seither mit der 1.1.9 (32bit) eigentlich immer gut gefahren, aber die Entwicklung schreitet eben voran.

Wenn ich jetzt mein .ts in Staxrip werfe und dsmux aktiviert habe remuxt er das in ein .mkv und ändert das Tonspurflag und den Dateinamen in Englisch. für mich ist das optisch erstmal unschön, da das ac3 Deutsch ist.

Weiß jemand was ich in Staxrip im Kommandozeilenfenster wo eintragen kann, das statt Default --ui-language en, Deutsch rauskommt?

Bin irgendwie zu blöd, um google zu befragen.


Hänge mal das .log an
------------------------------------------------------------
                    	Environment
------------------------------------------------------------

StaxRip x64 : 1.3.2.0
OS      	: Windows 8.1 Pro
Language	: German (Germany)
CPU     	: AMD FX(tm)-8150 Eight-Core Processor
GPU     	: AMD Radeon R7 200 Series

------------------------------------------------------------
               	Source file MediaInfo
------------------------------------------------------------

E:\Eigene Projekte\service  trends - Burger-Check.ts

General
ID                      	: 1061 (0x425)
Complete name           	: E:\Eigene Projekte\service  trends - Burger-Check.ts
Format                  	: MPEG-TS
File size               	: 1.86 GiB
Duration                	: 24mn 43s
Overall bit rate mode   	: Variable
Overall bit rate        	: 10.8 Mbps

Video
ID                      	: 5351 (0x14E7)
Menu ID                 	: 10355 (0x2873)
Format                  	: AVC
Format/Info             	: Advanced Video Codec
Format profile          	: High@L4
Format settings, CABAC  	: Yes
Format settings, ReFrames   : 4 frames
Format settings, GOP    	: M=8, N=32
Codec ID                	: 27
Duration                	: 24mn 43s
Bit rate                	: 9 776 Kbps
Width                   	: 1 280 pixels
Height                  	: 720 pixels
Display aspect ratio    	: 16:9
Frame rate              	: 50.000 fps
Color space             	: YUV
Chroma subsampling      	: 4:2:0
Bit depth               	: 8 bits
Scan type               	: Progressive
Bits/(Pixel*Frame)      	: 0.212
Stream size             	: 1.69 GiB (91%)

Audio
ID                      	: 5356 (0x14EC)
Menu ID                 	: 10355 (0x2873)
Format                  	: AC-3
Format/Info             	: Audio Coding 3
Mode extension          	: CM (complete main)
Format settings, Endianness : Big
Codec ID                	: 6
Duration                	: 24mn 43s
Bit rate mode           	: Constant
Bit rate                	: 448 Kbps
Channel(s)              	: 2 channels
Channel positions       	: Front: L R
Sampling rate           	: 48.0 KHz
Frame rate              	: 31.250 fps (1536 spf)
Compression mode        	: Lossy
Delay relative to video 	: 40ms
Stream size             	: 79.2 MiB (4%)
Language                	: German


------------------------------------------------------------
                       	dsmux
------------------------------------------------------------

"D:\Multimedia\MatroskaSplitter\dsmux.x64.exe" "E:\Eigene Projekte\service  trends - Burger-Check temp files\service  trends - Burger-Check.mkv" "E:\Eigene Projekte\service  trends - Burger-Check.ts"

Creating graph... done.
Creating muxer... done.
Opening service  trends - Burger-Check.ts... done.

Start:	14:14:42
End:  	14:15:03
Duration: 00:00:20


------------------------------------------------------------
            	Demux audio using mkvextract
------------------------------------------------------------

"D:\Multimedia\StaxRip_x64_1.3.2.0\Apps\MKVToolNix\
mkvextract.exe" tracks "E:\Eigene Projekte\service  trends - Burger-Check temp files\service  trends - Burger-Check.mkv" 1:"E:\Eigene Projekte\service  trends - Burger-Check temp files\service  trends - Burger-Check ID2 38ms English.ac3" --ui-language en

Extracting track 1 with the CodecID 'A_AC3' to the file 'E:\Eigene Projekte\service  trends - Burger-Check temp files\service  trends - Burger-Check ID2 38ms English.ac3'. Container format: Dolby Digital (AC-3)

Start:	14:15:06
End:  	14:15:13
Duration: 00:00:06

General
Complete name           	: E:\Eigene Projekte\service  trends - Burger-Check temp files\service  trends - Burger-Check ID2 38ms English.ac3
Format                  	: AC-3
Format/Info             	: Audio Coding 3
File size               	: 79.2 MiB
Duration                	: 24mn 43s
Overall bit rate mode   	: Constant
Overall bit rate        	: 448 Kbps

Audio
Format                  	: AC-3
Format/Info             	: Audio Coding 3
Mode extension          	: CM (complete main)
Format settings, Endianness : Big
Duration                	: 24mn 43s
Bit rate mode           	: Constant
Bit rate                	: 448 Kbps
Channel(s)              	: 2 channels
Channel positions       	: Front: L R
Sampling rate           	: 48.0 KHz
Frame rate              	: 31.250 fps (1536 spf)
Compression mode        	: Lossy
Stream size             	: 79.2 MiB (100%)


------------------------------------------------------------
                	Index with ffmsindex
------------------------------------------------------------

"D:\Multimedia\StaxRip_x64_1.3.2.0\Apps\Plugins\both\
ffms2\ffmsindex.exe" "E:\Eigene Projekte\service  trends - Burger-Check temp files\service  trends - Burger-Check.mkv" "E:\Eigene Projekte\service  trends - Burger-Check temp files\service  trends - Burger-Check.ffindex"

Writing index... done.

Start:	14:15:13
End:  	14:15:17
Duration: 00:00:03


Angehängte Miniaturbilder

  • Angehängtes Bild: dsmux.jpg

0

Anzeige

Thema verteilen:


Seite 1 von 1

1 Besucher lesen dieses Thema
Mitglieder: 0, Gäste: 1, unsichtbare Mitglieder: 0